солнечный удар фильм михалков скачать бесплатно

Перейти к контенту

Главное меню:

Интересное
солнечный удар фильм михалков скачать бесплатно, Солнечный удар (2014) / Фильм Никиты Михалкова, Скачать фильм Солнечный удар (2014) через торрент, Солнечный удар (2014) / Фильм Никиты Михалкова - Скачать , Солнечный удар (2014) скачать фильм через торрент бесплатно, Солнечный удар (2014) Скачать торрент » Торрент фильмы , Скачать фильм Солнечный удар (2014) торрент, .
Перевод: не требуетсяКонтейнер: MKVВидео: 1024x428 (2,40:1), 25 fps, H264 ~ 1620 kbps avg, 0.148 bit/pixelАудио: 48 kHz, Dolby Digital AC3 2.0, 192 kbpsВидео: Идентификатор : 1 Формат : AVC Формат/Информация : Advanced Video Codec Профиль формата : Параметр CABAC формата : Да Параметр ReFrames формата : 8 кадров Идентификатор кодека : V_MPEG4/ISO/AVC Продолжительность : 2 ч. 52 м. Битрейт : 1620 Кбит/сек Ширина : 1024 пикселя Высота : 428 пикселей Соотношение сторон : 2,40:1 Режим частоты кадров : Постоянный Частота кадров : 25,000 кадров/сек Цветовое пространство : YUV Субдискретизация насыщенности : 4:2:0 Битовая глубина : 8 бит Тип развёртки : Прогрессивная Бит/(Пиксели*Кадры) : 0.148 Размер потока : 1,91 Гбайт (87%) Библиотека кодирования : x264 core 138 r2356 a1d3d17 Настройки программы : cabac=1 / ref=8 / deblock=1:-3:-2 / analyse=0x3:0x113 / me=umh / subme=10 / psy=1 / psy_rd=1.00:0.05 / mixed_ref=1 / me_range=32 / chroma_me=1 / trellis=2 / 8x8dct=1 / cqm=0 / deadzone=21,11 / fast_pskip=1 / chroma_qp_offset=-3 / threads=6 / lookahead_threads=1 / sliced_threads=0 / nr=0 / decimate=0 / interlaced=0 / bluray_compat=0 / constrained_intra=0 / bframes=8 / b_pyramid=2 / b_adapt=2 / b_bias=0 / direct=3 / weightb=1 / open_gop=0 / weightp=2 / keyint=250 / keyint_min=25 / scenecut=40 / intra_refresh=0 / rc_lookahead=40 / rc=2pass / mbtree=1 / bitrate=1620 / ratetol=1.0 / qcomp=0.60 / qpmin=0 / qpmax=69 / qpstep=4 / cplxblur=20.0 / qblur=0.5 / ip_ratio=1.40 / aq=1:1.00 Default : Да Forced : НетАудио: Идентификатор : 2 Формат : AC-3 Формат/Информация : Audio Coding 3 Расширение режима : CM (complete main) Параметр Endianness формата : Big Идентификатор кодека : A_AC3 Продолжительность : 2 ч. 52 м. Вид битрейта : Постоянный Битрейт : 192 Кбит/сек Каналы : 2 канала Расположение каналов : Front: L R Частота : 48,0 КГц Битовая глубина : 16 бит Метод сжатия : С потерями Размер потока : 237 Мбайт (11%) Default : Да Forced : Нет, Этот «солнечный удар» не отпускает его даже в самые «окаянные дни» гибели Российской Империи… Category Film & Animation, Если Вам удалось скачать бесплатно фильм Солнечный удар или не удалось это сделать, если Вы каким либо образом использовали данные файлы и Вам есть что сказать, пожалуйста, напишите Ваше мнение по поводу Солнечный .
Смотреть видео Солнечный удар (2014) / Фильм Никиты Михалкова онлайн, скачать видео., Что-бы бесплатно и без регистрации скачать Солнечный удар (2014) через торрент - воспользутейсь данной инструкцией., Попытка красивого оправдания плотского порока и вопиющей глупости на фоне душевного поражения и абсолютного духовного банкротства., Приглашаем фильм Солнечный удар скачать торрент бесплатно в хорошем качестве, и вы убедитесь в том, что он повествует как о революции, так и о любви., , .
 
Copyright 2019. All rights reserved.
Назад к содержимому | Назад к главному меню